#TITLE:Final Battle;
#SUBTITLE:Megaman III;
#ARTIST:Capcom;
#TITLETRANSLIT:;
#SUBTITLETRANSLIT:;
#ARTISTTRANSLIT:;
#CREDIT:;
#BANNER:Final Battle-bn.png;
#BACKGROUND:Final Battle-bg.png;
#LYRICSPATH:;
#CDTITLE:cdtitle.png;
#MUSIC:Final Battle.mp3;
#OFFSET:1.162;
#SAMPLESTART:38.660;
#SAMPLELENGTH:12.000;
#SELECTABLE:YES;
#BPMS:0.000=180.000,20.000=171.400;
#STOPS:;
#BGCHANGES:;
// cache tags:
#FIRSTBEAT:4.000;
#LASTBEAT:212.000;
#SONGFILENAME:Songs/Music V.I.P ^_^/Final Battle (Zaghurim)/Final Battle.sm;
#HASMUSIC:1;
#HASBANNER:1;
#MUSICLENGTH:77.583;
// end cache tags

//---------------dance-single - ----------------
#NOTES:
     dance-single:
     :
     Hard:
     11:
     1.000,1.000,0.967,0.000,1.000,633.000,75.000,0.000,0.000,0.000:
0000
0000
0000
0000
,
0001
0100
0010
1000
0001
0100
0010
1000
0001
0100
0010
1000
0001
0100
0010
1000
,
0001
1000
0010
0100
0001
0100
0010
0100
0001
0010
0100
1000
0001
1000
0010
1000
,
0010
0101
0110
1010
0000
0000
0000
0000
,
0101
0000
0101
0000
0110
0000
1010
0000
0001
0100
0010
1000
0001
0100
0010
1000
,
0010
0100
1010
0100
1010
0001
1100
0010
,
0101
1000
0101
0010
0101
1000
0001
0100
,
0011
0100
1001
0100
1001
0010
0101
1000
,
0101
0010
0101
1000
0011
0100
0001
1000
,
0001
1000
0010
0100
0001
1000
0100
0010
0001
1000
0010
0100
0001
1000
0100
0010
,
0001
1000
0010
0100
0010
1000
0010
0100
0001
1000
0010
0100
0010
1000
0010
0100
,
0001
1000
0010
0100
0001
1000
0010
0100
0001
1000
0010
0100
0001
1000
0010
0100
,
0001
0010
0100
1000
0010
0100
0010
1000
0100
0010
0001
0100
0010
1000
0010
0100
,
0001
0010
0100
1000
0001
0100
0010
1000
0001
0010
0100
1000
0001
0100
0010
1000
,
0001
0100
0001
1000
0010
0100
0010
1000
0001
0010
0001
0100
0010
1000
0010
0100
,
0010
0000
0010
0000
0010
0100
0000
0100
0000
0010
0000
1000
0010
0000
0010
0000
,
0100
0000
0100
0000
0001
1000
0000
1000
0000
0001
0000
1000
0010
0000
0001
0000
,
1100
0001
0110
0001
1100
0010
0101
1000
,
0011
0100
0011
1000
0011
0100
1010
0101
,
1010
0001
0110
0001
0110
1000
0011
0100
,
0011
1000
0011
0100
1010
0001
1010
0101
,
0010
1000
0010
0100
0001
1000
0010
0100
0001
1000
0001
0100
0010
0100
0001
1000
,
0010
0100
0001
0010
0100
1000
0001
0100
0001
1000
0010
0100
0010
1000
0001
1000
,
0001
0010
0100
1000
0001
0100
0010
1000
0001
0100
0010
1000
0001
0010
0100
1000
,
0001
0100
0010
1000
0001
0010
0100
1000
0010
0100
0001
1000
0010
1000
0010
0100
,
0001
0010
0001
1000
0010
0100
0010
0100
0001
0010
0001
1000
0010
0100
0010
1000
,
0001
0100
0001
1000
0100
1000
0010
0100
0010
1000
0100
1000
0001
0100
0001
0010
,
0001
0000
0001
0000
1000
0001
0000
0001
0000
1000
0000
1000
0010
0000
0010
0000
,
0010
0000
0010
0000
0001
1000
0000
1000
0000
0001
0000
1000
0010
0000
0010
0000
,
0101
1000
0110
1000
0011
0100
1001
0010
,
1100
0001
1100
0010
1100
0001
0110
1001
,
0110
1000
0101
1000
0101
0010
1100
0001
,
1100
0010
1100
0001
0110
0001
1010
0101
,
1000
0100
0010
0001
1000
0010
0100
0001
1000
0100
0010
0001
1000
0010
0100
0001
,
1000
0010
1000
0001
0100
0001
1000
0010
1000
0100
0010
0001
0100
0001
0010
0100
,
1000
0001
0010
0001
1000
0100
0010
0001
1000
0010
0100
0001
1000
0010
0100
0001
,
1000
0001
1000
0010
0100
0010
1000
0001
0100
0010
1000
0001
1000
0100
0010
0001
,
1000
0100
1000
0001
0010
0001
0100
0010
0100
0001
0010
0001
1000
0100
1000
0010
,
0100
0010
1000
0100
1000
0001
0010
0001
0100
0010
0100
0001
0010
0001
1000
0100
,
1000
0000
1000
0000
0010
1000
0000
1000
0000
0010
0000
0100
0010
0000
0010
0000
,
0010
0000
0010
0000
0001
0100
0000
0100
0000
0001
0000
0100
0010
0000
0010
0000
,
0101
1000
0011
1000
0110
0001
1010
0001
,
1100
0001
1010
0100
1001
0010
0101
1010
,
0101
1000
0110
1000
0110
0001
1100
0010
,
1100
0001
1100
0010
0101
1000
0011
1100
,
0001
1000
0010
1000
0001
0100
0010
1000
0001
1000
0100
0010
0001
1000
0001
0100
,
0010
1000
0001
0100
0010
1000
0001
0100
0010
1000
0010
0100
0001
1000
0100
0010
,
0001
0010
0100
1000
0010
0100
0010
1000
0100
0010
0001
0100
0010
0100
0001
1000
,
0010
0100
0010
1000
0100
0010
0001
0100
0001
0100
0010
1000
0010
1000
0100
0010
,
0001
0010
0100
1000
0010
0100
0010
1000
0001
0010
0100
1000
0010
0100
0010
1000
,
0001
1000
0010
0100
0001
1000
0010
0100
0001
1000
0010
0100
0001
1000
0010
0100
,
0001
0000
0001
0000
1000
0001
0000
0001
0000
1000
0000
0010
0100
0000
0100
0000
,
0100
0000
0100
0000
0010
1000
0000
1000
0000
0010
0000
1000
0010
0000
0010
0000
,
1001
0000
0000
0000
;
